Ffmpeg Audio Pts

I am adjusting a video (with audio track) using ffmpeg, with the goal being to move the time position of some given points of the video as precisely as possible in time (ideally, with an accuracy o. For example to copy with ffmpeg the entire Audio-CD in /dev/sr0,. 0*PTS" output. 'fix_teletext_pts' Overrides teletext packet PTS and DTS values with the timestamps calculated from the PCR of the first program which the teletext stream is part of and is not discarded. Default value is 0. All of this is then encoded and merged into an MKV container. The new name better expresses what the variable is. The avi file has only one video and one audio stream. Progi1984 - Commentaires (0) Logiciel Libre. 1 of the License, or (at your option) any later version. However, it cannot handle a number of technical requirements that are specific to Twitch’s operation. Each stream file can be thought of as a separate incoming live feed that contains one video track and one audio track. adding -2147483648 audio samples of silence adding -2147483648 audio samples of silence *** drop! 「Invalid timestamps pts=4078, dts=8589929661」 すなわち PTS が 00:00:00. 05*PTS" fast. ffmpeg -i input. mp4 The audio is synchronised all right, but the video length is displayed incorrectly in players: they show 30 min (of the original video) instead of 1. youtube-dl -x uses ffmpeg out of the box to extract mp3 audio from a video. video mp4 audio how convert tutorial from example android file Can the ffmpeg av libs return an accurate PTS? I'm working with an mpeg stream that uses a IBBP GOP sequence. [29 Jan 2012 13:20:11 EST] - Update against upstream FFmpeg 0. This will be used next time for synchronizing the audio with the video. Extract Audio from Video. *http://dranger. So, ffmpeg -y -i left. 5*PTS" output. ; After the semicolon (:) may be the stream specifier - supposing that you have only one video and one audio streams in your input files, you may simply use v for the video stream, and a for the audio stream. Time Stamp? PTS? DTS? ffmpeg 으로 데이터를 저장하든 혹은 어디로 쏴주든 할 때 제일 짜증나는 것들 중에 하나가 바로 PTS(Presentation Time Stamp) 와 DTS(Decoding Time Stamp)값 설정이다. I was able to extract all stream so for, except this one. com/ffmpeg. It is only meaningful if you are streaming with the RTSP protocol. 139320 pts_time=0. The filter for video is setpts (PTS = presentation time stamp). Audio 120ms ahead of the video we set audio sync so it shows + 120 (processing then audio becomes in sync to the video then is 0%). - FFmpeg Forum. Encoders are allowed to output empty packets, with no compressed data, containing only side data (e. mp4 -vf setpts=PTS*1. The easiest way to install ffmpeg is to download a pre-built binary for your specific platform. It's a very powerful tool, but making the most use of it can be complicated for new users. c in FFmpeg before 4. pts,这是视频层的 pts,用户写输出前应将其转换为容器层的 pts [4] avcodec_send_frame() 发送 NULL frame 时,编码器进入 flush 模式 [5] avcodec_send_frame() 发送第一个 NULL 会返回成功,后续的 NULL 会返回 AVERROR_EOF. So I did: ffmpeg -i in. On Mon, Dec 3, 2018 at 11:16 AM Gyan Doshi wrote: > On 03-12-2018 09:35 PM, Carl Eugen Hoyos wrote: > > It appears to me that NewTek abused our willingness to add an optional > > external nonfree library, I don't see many better options. 069660 pts_time=0. ffmpeg -i incorrect-audio-file. Adding an extra step by extracting a raw stream and retiming that will work. original or copy -- 1 = original, 0 = copy. mp4 This command won't terminate on its own, and the output file will grow infinitely. mkv is a Matroska container file and accepts video, audio and subtitle streams, so ffmpeg will try to select one of each type. 1) Audio stop early. FFMpeg – Transcode, copy flv to mp4 and more by RobinJack0r · Published May 23, 2014 · Updated April 13, 2019 (ffmpeg, ffplay and ffprobe) FFMpeg allows you to convert Video and Audio files to several different formats and codecs, as well as cutting, resizing and other functions. -b:a 128k - Specifies the bitrate of the audio as 128k. Original 2012-11-16, Updated 2016-04-05: cleanup and information about overlaying images. *http://dranger. 10 * 11 * FFmpeg is distributed in the hope that it will be useful, 12. That should output an image once per second (though note that's per second of processed audio; ffmpeg will as typical run as fast as the CPU allows, at least if the output will accept data that fast. c | 8 ++++----1 file changed, 4 insertions(+), 4 deletions(-) diff --git a/ffplay. sh: using mencoder to create videos Linux Users Corner. tw/2013/06/ffmpeg-h264-mp4. FFmpeg-based console audio/video player (e. avi Input files are introduced with -i options, and are enumerated from 0, so. ffmpeg is a very fast video and audio converter that can also grab from a live audio/video source. Set audio device number for devices with the same name (starts at 0, defaults to 0). 5" -vn output. FFmpeg will only read ID3v1 tags if no other metadata is // available, so add a metadata entry to ensure some is always present. // don't use. stab library - astats filter - trim and atrim filters - ffmpeg -t and -ss (output-only. Contribute to FFmpeg/FFmpeg development by creating an account on GitHub. Open input file usin. I have seen 2 meanings in the ffmeg library: - Some codecs seem to assume that the PTS value is actually a 'frame count', i. $ ffmpeg -i input. The above command will convert input. BOSE CAR AUDIO SPEAKERS - $65 OBO (Rosemount) < image 1 of 2 > condition: excellent make / manufacturer: BOSE. pts with ffmpeg::av_rescale_q() but this is only called after you have encoded the frame ! When used with the MP4V codec the avcodec_encode_video() sets the pts value correctly itself. chromium / chromium / third_party / ffmpeg / boop /. I would like to create a single 10 minute video clip measuring 1280x480 (in other words, I want to place the videos next to each other and play them simultaneously, mixing audio from both clips). ffmpeg -i input. To achieve proper playback with FFmpeg you need to use two options. /ffprobe -show_format -show_streams -print_format json ${file} 7570 files Format stats: mp3: 1 gif: 1 srt: 3 matroska,webm: 10 tty: 13. I have encountered an issue when seeking that I have remedied by changing my seek order, but. sha256: ffmpeg -i INPUT -f framehash out. mp4 -vf setpts=PTS*1. mpg into dvdauthor generated exactly the same synchronization errors. png or ffmpeg -i input. mp4 />//>/This resulted in really bad audio quality. Progi1984 - Commentaires (0) Logiciel Libre. Re: [FFmpeg-devel] [PATCH] ffplay: always show stats at all log levels if requested by user Marton Balint Fri, 03 Apr 2020 08:57:15 -0700 On Fri, 3 Apr 2020, Gyan Doshi wrote:. com/2017/07/18/commandline-media-helper/ https://motiondesigntechnology. ffmpeg -i input. If you want to change the pitch, and you don't have the latest ffmpeg with --enable-librubberband, you need to rely on a low-level filter. mp4 -vn -ar 44100 -ac 2 -ab 320 -f mp3 output. 264, audio to AAC, and wrapped in an. In particular it allows one to perform audio resampling, audio channel layout rematrixing, and convert audio format and packing layout. mp4 //half speed with fps 30. 할당 된 AVFrame 포인터를 디코딩 된 샘플 및 채널, 샘플 형식, 버퍼 크기의 다른 매개 변수 번호가 들어있는 버퍼와 함께 전달합니다. 000, but I want 48. Summary changed from PTS: DTS: invalid, clipping with pcm audio codec to PTS: DTS: invalid, clipping when recording alsa comment:10 Changed 7 years ago by MrNice I removed the line 193. both on the audio stream of the source file and of the extracted file produces different hash. It's the same for WMP, VLC (where it breaks seeking to a specific time: e. avi -vn -ar 44100 -ac 2 -ab 192 -f mp3 audio3. Apparently you are expected to set the pts when allocating the buffer of a frame. FFmpeg is a great multimedia framework that helps you deal with your audio and video files. [[email protected]: ~]$ ffprobe -hide_banner 1. 1:10000 -flags +global_header -c:a libvo_aacenc -vn -map 0:1 -f rtp rtp://127. The above output, however, does not have any audio attached to the output. Both are 640x480 and last 10 minutes. Interaction with lswr is done through SwrContext, which is allocated with swr_alloc() or swr_alloc_set_opts(). You can also mix a video with a sound file as follows: $ ffmpeg -i audio. How to reproduce:. dropping initial audio frame with PTS too high 437398524633674384 dropping initial audio frame with PTS too high 437400242620593184 C:\dev\crossbar\ffmpeg. 0: Video: libx264, yuv420p, 640x480, q=2-31, 90k tbn, 1200k tbc Stream #0. mpg -vf "setpts=0. 0*PTS" output. What combination of ffmpeg audio filters am I best advised to use to enhance recorded speech? I'm currently using. Change audio volume level. 264 and mpeg1L2 audio to mp4/mov using -fflags +igndts, av_interleaved_write_frame() reports: Invalid argument, pts (-10800) < dts (-3600). Change the Default Volume of Audio Files. 1:10002 > 10000. Re: Fixing bad DTS/PTS without reencode Post by rogerdpack » Mon Jan 21, 2013 3:57 pm too bad there was no resolution to this, I know with DVD rips, ffmpeg reports the wrong durationbut with mencoder -forceidx it "fixes it right up" I wish there were an ffmpeg equivlaent. Press question mark to learn the rest of the keyboard shortcuts. mp4 -vf fps=25 out%d. I therefore tested speeding up the video 8 times, using this command (the -an flag is used to remove the audio): ffmpeg -i dance. ffmpeg itsoffset for audio not working. Combine audio from video1. More information Maritime radio and radio on aircrafts. Joining videos in Xabe. Page 3-vid2bb. mkv -filter:v "setpts=0. The ffmpeg program has numerous "switches" that help to adjust and convert audio and video files. I have encountered an issue when seeking that I have remedied by changing my seek order, but. BOSE CAR AUDIO SPEAKERS - $65 OBO (Rosemount) < image 1 of 2 > condition: excellent make / manufacturer: BOSE. This article shows how easy it is to read or write video frames with a few lines of Python, by calling the external software FFMPEG through pipes. 046440 pts_time=0. [3] avcodec_receive_packet() 输出 packet 时,packet. I am trying to understand the pts value in an audio encoded packet in ffmpeg. void audioSpec_init(VideoState *is, Float64 sample_rate){// is audio input available? AudioComponentDescription outputcd = {0}; // 10. Question: Tag: ffmpeg,mpeg,pts,iptv As I know PCR stored in 42bits and PTS stored in 33bits in mpegts container. 4, the following command creates output. mp4, since it has the greatest number of channels. 'fix_teletext_pts' Overrides teletext packet PTS and DTS values with the timestamps calculated from the PCR of the first program which the teletext stream is part of and is not discarded. The resulting command line looks somewhat complex. I am attempting to seek both audio and video streams for an mp4 using the ffmpeg av_seek_frame method. ‘fix_teletext_pts’ Overrides teletext packet PTS and DTS values with the timestamps calculated from the PCR of the first program which the teletext stream is part of and is not discarded. I was looking for a tutorial/book that would teach me how to start to use FFmpeg as a library (a. 023220 pkt_pos=56761 pkt_size=8192 sample_fmt=flt nb_samples=1024 channels=2 channel_layout=stereo [/FRAME] [FRAME] media_type=audio stream_index=0 key_frame=1 pkt_pts=1024 pkt_pts. com/ffmpeg. mp4': Metadata: major_brand : isom minor_version : 512 compatible_brands. Because audio PTS by ffmpeg have 12 sec but real audio has 30 sec. The closest I've come is using this: ----- ffmpeg. 1", is the audio track. 264, audio to AAC, and wrapped in an. cropdetec can auto-detect crop size. Hls Fragment Hls Fragment. 25,atempo=1/1. I would like to create a single 10 minute video clip measuring 1280x480 (in other words, I want to place the videos next to each other and play them simultaneously, mixing audio from both clips). tw/2013/06/ffmpeg-h264-mp4. This dilemma is intrinsic to ffmpeg, and ffmpeg-python tries. This must be the same as the input frame rate to eliminate judder. These options are marked ’T’ on the output of ffmpeg-h filter=. I guess there is a possibility to get a better result by using -af aresample, but I have problems to. For audio it may contain several compressed frames. Processing streams with both audio and video in ffmpeg gets weird. It is a work in progress. % ffprobe XXX. FFMPEG can use a suite of input commands. When seeking (audio), use the DTS/PTS for the first frame, because that's all you have. If you use a larger value, the video will display in slower motion. mp4 -filter:v "setpts=2*PTS" output. It seems we should remove following code from avisynth_read_packet function. ffmpeg -f concat -i file-list. Speed up or Slow down the audio. -c copy copies the first video, audio, and subtitle bitstream from the input to the output file without re-encoding them. My code is: ffmpeg -y -f x11grab -f alsa -i hw:0. youtube-dl -x uses ffmpeg out of the box to extract mp3 audio from a video. Summary of the bug: When copying the streams of a mpeg-ts containing h. It is common for a container to have the beginning of the video and the beginning of the audio start at different points. I checked my timebase to be 1/44100 and some pts values : 70754080000, 70759090000, back to back packet pts values. Question: Tag: ffmpeg,mpeg,pts,iptv As I know PCR stored in 42bits and PTS stored in 33bits in mpegts container. Time Stamp? PTS? DTS? ffmpeg 으로 데이터를 저장하든 혹은 어디로 쏴주든 할 때 제일 짜증나는 것들 중에 하나가 바로 PTS(Presentation Time Stamp) 와 DTS(Decoding Time Stamp)값 설정이다. So I calculated the DTS using current time information. So I did: />/ffmpeg -i in. ffmpeg -i input. Hi, These PTS and DTS used for sync between audio and video data while encoding and presentation. avi has the number 1. pts, despite the documentation claiming that frame->pkt_pts is the. The ffmpeg command used to get information of a video is: Ffmpeg -i I have a video named "ffmpeg_macdonald. - change deprecated av_free_packet to unrefs. Adjust video and audio. The detailed explanation: ffmpeg -i v1. The avi file has only one video and one audio stream. It calculate necessary cropping parameters and prints the recommended parameters through the logging system. mp4, which has the highest resolution among all the input video streams. avi Input files are introduced with -i options, and are enumerated from 0, so. In our testbed, FFmpeg works as an encoding and decoding front-end,. 046440 pts_time=0. mkv ffmpeg -i input. QR Code Link to This Post. To double the speed of the video, you can use: ffmpeg -i input. English application forms. audio_buffer_size. FFmpeg-based console audio/video player (e. This may result in incorrect timestamps in the output file. 5*PTS" output. In the article you referenced please note that several stream files are used to achieve the ability to switch from one of the Apple HLS input track to another. How I can split audio into complete segments (split by reported PTS)? Code: ffmpeg -i test. ffmpeg中时间戳调整参数setpts PTS(Presentation Time Stamp):即显示时间戳,这个时间戳用来告诉播放器该在什么时候显示这一帧的数据。 当视音频音画不同步,播放器进度条拖动异常,总时长显示异常,往往都是由于pts错误导致的。 先说如何查看视音频的pts. It is a work in progress. When seeking (audio), use the DTS/PTS for the first frame, because that's all you have. Now with the pts_time we can find a way to render this synched with audio pts_time or with a system clock. Page 3-vid2bb. The resulting command line looks somewhat complex. Capturer un flux RTSP dans un fichier via ffmpeg. 023220 pts_time=0. - decent native animated GIF encoding - asetrate filter - interleave filter - timeline editing with filters - vidstabdetect and vidstabtransform filters for video stabilization using the vid. Summary of the bug: When copying the streams of a mpeg-ts containing h. pts, despite the documentation claiming that frame->pkt_pts is the. cropdetec can auto-detect crop size. ffmpeg problem: DTS/PTS invalid, clipping Post by WillJ » Sat Mar 16, 2013 10:42 am (I thought I'd move this topic here as it was in the rtmpdump section, inappropriately as its about ffmpeg). av_dict_set (& format_context-> metadata, "skip_id3v1_tags", "", 0); // Ensure ffmpeg doesn't give up too early while looking for stream params; // this does not increase the amount of data downloaded. mp3 outputfile. FFmpeg Formats Documentation: 3. When we get data from a movie file, we don't know how many samples we will get, but ffmpeg will not give us partial samples - that also means that it will not split a stereo sample up, either. Hi, I've spent all day looking for a solution to this but to no avail. ffmpeg -i snatch_1. All of this is then encoded and merged into an MKV container. This works fine using LibStreamer library for Android. pkt->pts, pkt->dts and pkt->duration are always set to correct values in AVStream. 3-1 installed Available. – Ability to view all audio tracks with ability to re-sort them in any order how the user would like them to be. And so I request that FFmpeg team inspect this problem. mp4 -filter:v "setpts=0. QR Code Link to This Post. Ask Question Asked 3 years ago. - change deprecated av_free_packet to unrefs. AVPacket is one of the few structs in FFmpeg, whose size is a part of public ABI. 3 header and an ID3v1 footer: ffmpeg -i INPUT -id3v2_version 3 -write_id3v1 1 out. mp4 -vf “setpts=(1/X )*PTS” output. 046440 pts_time=0. It also includes libavformat, an audio/video container mux and demux library. Hi, I've spent all day looking for a solution to this but to no avail. ffmpeg [input-options] -i [input-file] [output-options] [output-stream-URI]Where: [input-options] apply to the input, or source, file. The elementary stream is packetized by encapsulating sequential data bytes from the elementary stream inside PES. 1:10000 -flags +global_header -c:a libvo_aacenc -vn -map 0:1 -f rtp rtp://127. mpg -map 0. 125*PTS" output. c in FFmpeg before 4. 4 -af asetrate=48000*1. 880 STAT: VOBU 8816 at 1358MB, 1 PGCs INFO: Video pts = 0. The above command will convert input. This fixes the first issue I raised. Also, you can use various audio transcoding options to the output file as shown below. By using two seeks, one to a second before where we really want to be, and then a second. Set audio device number for devices with the same name (starts at 0, defaults to 0). 4 -af asetrate=48000*1. sdl>git diff. Because audio PTS by ffmpeg have 12 sec but real audio has 30 sec. I will use this to capture the desktop with x11grab, audio from pulse and webcam from video4linux2. Some options can be changed during the operation of the filter using a command. 04, start: 2. FFMPEG can use a suite of input commands. 0 Running Video too fast and no sound Those file types may fall under 1 codec perhaps the ffmpeg? main audio output warning: PTS is out of range. What I get is a video where the mic audio stays in sync, but the desktop audio goes back to being too. PTS copied from the AVPacket that was decoded to produce this frame. sha256: ffmpeg -i INPUT -f framehash out. The detailed explanation: ffmpeg -i v1. There were some issues w. mp4 -filter:v "setpts=2. * Only set this if you are absolutely 100 % sure that the value you set * it to really is the pts of the first frame. The drop parameter resets input timestamps and generates new ones. All that remains is to merge the two audio streams so both can be heard at the same time: ffmpeg -i synced_video. pts_ptr is a pointer we use to inform audio_callback the pts of the audio packet. Btw,the answer below doesn't help as it presumes both audio and video streams come from the same file, whereas in my case only audio comes from the external source. Now with the pts_time we can find a way to render this synched with audio pts_time or with a system clock. In our testbed, FFmpeg works as an encoding and decoding front-end,. As landscape management providers in the greater Northern Virginia area, we are trained to work successfully with the region's unique and challenging climate conditions, giving yo. mp4 -pix_fmt yuv420p -r 23. Crop an audio file. Audio options-acodec aac - Uses the internal FFmpeg AAC codec for the audio processing. video didn't work for me, but the following. Change audio volume level. mp4 -filter:v "setpts=0. flac -i sidechain. 976 -vcodec libx264 -vf "scale=1920:1080" -b:v 3400k -preset veryfast -profile:v baseline -keyint_min 24 -g 48 -x264opts no-scenecut -strict experimental -acodec aac -b:a 96k -af "aresample=async=1:min_hard_comp=0. For audio, it will select stream 3 from B. I checked my timebase to be 1/44100 and some pts values : 70754080000, 70759090000, back to back packet pts values. 2 Free Download - VideoHelp. Examples To compute the SHA-256 hash of the audio and video frames in INPUT, converted to raw audio and video packets, and store it in the file out. Just opened the box to take photos. Use ffmpeg to convert an audio file to VBR AAC in an M4A (MP4) container: ffmpeg -i input. But as you start decoding and playing, use the sample count as your timestamp and don't keep using the DTS/PTS. Video may have delayed frames, which means the input frame and output frame may refer to differently ordered units. mp4" -i "AudioToReplace. Thanks, for going over the frame reordering. mkv -filter_complex "[0:a:0][0:a:1] amerge=inputs=2 [out]" -map "0:v" -c:v copy -map "[out]" -c:a aac -b:a 320k -ac 2 merged. This device allows playing and grabbing from an Audio-CD. Set audio device buffer size in milliseconds (which can directly impact latency, depending on the device). So I did: ffmpeg -i in. In this solution, FFmpeg unpacks the video container as separate raw video data and audio data in a native layer. mkv -filter:v "setpts=0. Viewed 6k times 4. Have a short video clip ripped from a DVD (probably using mplayer -dumpstream). 25,atempo=1/1. 74 seconds Second Video 6. What I get is a video where the mic audio stays in sync, but the desktop audio goes back to being too. FFmpeg sometimes has a hard time figuring out the input frames count. pts/ffmpeg-1. ffmpeg -ss 00:01:30 -t 30 -acodec copy -i inputfile. int64_t swr_next_pts (struct SwrContext *s, int64_t pts) Convert the next timestamp from input to output timestamps are in 1/(in_sample_rate * out_sample_rate) units. There are three output files specified, and for the first two, no -map options are set, so ffmpeg will select streams for these two files automatically. Now we want to implement a video clock similar to the audio clock we had last time: an internal value that gives the current time offset of the video currently being played. Combine audio from video1. 2 allows attackers to cause a denial of service (application crash caused by a divide-by-zero error) with a user crafted audio file when converting to the MOV audio format. To get a recent version you can compile ffmpeg or simply download a static build. 1: Audio: libmp3lame, 48000 Hz, stereo, 192 kb/s Stream mapping: Stream #0:0 -> #0:0 (copy) Stream #1:0 -> #0:1 (copy) Press ctrl-c to stop encoding frame= 144 fps= 0 q=-1. It's possible to use FFmpeg to remux content from the command line. 디코딩 된 오디오 패킷 인코딩의 일부로 avcodec_fill_audio_frame()을 사용하고 있습니다. Information when visiting Sweden with a ship or aircraft registered abroad and using radio transmitters Letter – information for visitors to Sweden. both pts starts from 0 with sync. 5*PTS" output. audio_decode_frame(), Generated on Fri Oct 26 02:39:51 2012 for FFmpeg by 1. Any seek used after a vframes moves one frame at a time unti the timestamp is reached, while any seek time before jumps "close to" the timestamp. 154811, bitrate: 1963 kb/s Program 1 Stream # 0:0[0x102]: Data: timed_id3 (ID3 / 0x20334449) Stream # 0:1[0x100]: Video: h264 (Main) ([27][0][0][0] / 0x001B), yuv420p (tv), 1024x576 [SAR 1:1 DAR 16. You can have multiple audio and video tracks in an MPEG-TS stream or you can keep each live feed separate. How to record desktop with audio on ffmpeg. These options are marked 'T' on the output of ffmpeg-h filter=. If you care to sync the audio speed with the. FFmpeg has added a realtime bright flash removal filter to libavfilter. A complete, cross-platform solution to record, convert and stream audio and video. Encoders are allowed to output empty packets, with no compressed data, containing only side data (e. If you have multiple audio or video files encoded with the same codecs, you can join them into a single file using FFmpeg. 084 INFO: Audio[0] pts = 0. Nothing wrong with it, just going a different route w my sounds. pixel_format. Setup of codecs, format, file, etc. For example, the presentation time stamp (PTS) is intended to be relative to the PCR. This is due to ffmpeg's behavior, as has been discussed in detail in #26, #208 and shown in this example. 125*PTS" output. mp4, since it has the greatest number of channels. Get a new ffmpeg. com/ffmpeg. Processing streams with both audio and video in ffmpeg gets weird. -af "aresample=async=1:min_hard_comp=0. mp4" -i "AudioToReplace. mp4 -vf setpts=PTS*1. ffmpeg -i input. FFmpeg2012-04-01 Eric 2. txt -c copy output. Note that this filter is not FDA approved, nor are we medical. blob: 8fa85661414a7463c4395f74cde2497718674a08 [] [] []. Creating a mosaic/tile of screenshots from a movie Seeking and cutting sections of a video. This may only be set when the video codec is not set or set to rawvideo. The new name better expresses what the variable is. OK, I Understand. 0*PTS" output. webm -i right. ffmpeg -i incorrect-audio-file. wav -codec:a libfdk_aac -vbr 3 output. both on the audio stream of the source file and of the extracted file produces different hash. Examples: Write an mp3 with an ID3v2. More application forms in Swedish. ~ $ ffmpeg -i source. The audio data is decoded by FFmpeg directly, which does not cost much CPU workload. Ffprobe Timeout Ffprobe Timeout. Select pixel format to be used by DirectShow. avi -vn -ar 44100 -ac 2 -ab 192 -f mp3 audio3. 1 Stream #0. wav -c:a libfdk_aac -profile:a aac_he -b:a 64k output. The command ffmpeg -codecs will print every codec FFmpeg knows about. To date, it remains one of the commonly used solutions for processing videos on Ruby on Rails. MPEG-2 transport stream demuxer. ffmpeg seems to drop frames. mp4, which has the highest resolution among all the input video streams. -c copy copies the first video, audio, and subtitle bitstream from the input to the output file without re-encoding them. Change audio volume level. mkv is a Matroska container file and accepts video, audio and subtitle streams, so ffmpeg will try to select one of each type. But as you start decoding and playing, use the sample count as your timestamp and don't keep using the DTS/PTS. For video, it will select stream 0 from B. 0: Video: libx264, yuv420p, 640x480, q=2-31, 90k tbn, 1200k tbc Stream #0. 1", is the audio track. Audio and Video must have aligned time stamps, so the decoder can fetch the approbiate pieces. 2 [13 June 2015. Monkey's Audio: DE: apng: Animated Portable Network Graphics: D: aqtitle: AQTitle subtitles: DE: asf: ASF (Advanced / Active Streaming Format) D: asf_o: ASF (Advanced / Active Streaming Format) E: asf_stream: ASF (Advanced / Active Streaming Format) DE: ass: SSA (SubStation Alpha) subtitle: DE: ast: AST (Audio Stream) DE: au: Sun AU: DE: avi. English application forms. Summary of the bug: When copying the streams of a mpeg-ts containing h. root # emerge --ask media-video/ffmpeg (If somebody successfully uses MPlayer/MPlayer2 to dump PCM specified chapters, feel free to add it to this Wiki page and retitle appropriately. Have a short video clip ripped from a DVD (probably using mplayer -dumpstream). $ ffmpeg -i input. If you want a battle-tested and more sophisticated version, check out my module MoviePy. ffmpeg -y -f dshow -s 640x480 -r:v 15 -i video="Integrated Webcam":audio="Microphone (Realtek High Defini" -c:v libx264 -pix_fmt yuv420p -vb 450 -an -map 0:0 -f rtp rtp://127. I am trying to mux H264 encoded data and G711 PCM data into mov multimedia container. AVPacket is one of the few structs in FFmpeg, whose size is a part of public ABI. 264 and mpeg1L2 audio to mp4/mov using -fflags +igndts, av_interleaved_write_frame() reports: Invalid argument, pts (-10800) < dts (-3600). In order to be able to use this module, make sure you have ffmpeg installed on your system (including all necessary encoding libraries like libmp3lame or libx264). 264 video encoding, FFmpeg uses external open source library x264. All of this is then encoded and merged into an MKV container. 这段时间看了FFMpeg提供的例子muxing. BOSE CAR AUDIO SPEAKERS - $65 OBO (Rosemount) < image 1 of 2 > condition: excellent make / manufacturer: BOSE. to update some stream parameters at the end of encoding). Does everyboby know which pts and dts values do i need to send to wowza server when using FFmpeg for a 50i video. mka -ss 351. When we get data from a movie file, we don't know how many samples we will get, but ffmpeg will not give us partial samples - that also means that it will not split a stereo sample up, either. c++ audio ffmpeg video-encoding this question edited Jun 19 '13 at 16:33 asked May 27 '13 at 8:02 Michael Ivanov 4,333 7 46 123. mp4 The transcoding generally works, but the abismal speed of way below 1 FPS kept this from beeing a viable solution. I'm presuming your output limits it to running at 1x). I was able to extract all stream so for, except this one. 2 allows attackers to cause a denial of service (application crash caused by a divide-by-zero error) with a user crafted audio file when converting to the MOV audio format. mp4, which has the highest resolution among all the input video streams. Hls Fragment Hls Fragment. Audio bitrate : 192kb/s. ffmpeg -i input. 5*PTS" output. 5" Front Door Speaker. Sometimes you have an audio file that's just too quiet to hear, or worse, one that's obnoxiously loud. Without -fflags +igndts a proper output is created. [[email protected]: ~]$ ffprobe -hide_banner 1. I am creating AVPacket from encoded data and initially the PTS and DTS value of video/audio frames is equivalent to AV_NOPTS_VALUE. ffmpeg -i snatch_1. Now feel free to try it with your audio device. I am creating AVPacket from encoded data and initially the PTS and DTS value of video/audio frames is equivalen. Maybe this has previously been explained in some other threads but I wonder what the exact convention should be if we have to pass a PTS value to a codec and have to capture a PTS value from the codec. I have seen 2 meanings in the ffmeg library: - Some codecs seem to assume that the PTS value is actually a 'frame count', i. SDL started a thread that made callbacks to a function we defined every time it needed audio. To double the speed of the video, you can use: ffmpeg -i input. FFmpeg is a command-line tool that uses commands to convert audio or video formats. The detailed explanation: ffmpeg -i v1. 023220 pts_time=0. 976 -vcodec libx264 -vf "scale=1920:1080" -b:v 3400k -preset veryfast -profile:v baseline -keyint_min 24 -g 48 -x264opts no-scenecut -strict experimental -acodec aac -b:a 96k -af "aresample=async=1:min_hard_comp=0. pixel_format. MPEG-2 transport stream demuxer. mp4 at High Profile, preserves the colour space of the input file, and uses a default preset. 97 A-V:18166. c Commit Line Data; 85f07f22: 1 /* 115329f1: 2 * FFmpeg main. Hi, I've spent all day looking for a solution to this but to no avail. mp4 This resulted in really bad audio quality. Plays segment to check settings by right clicking image. avi Input files are introduced with -i options, and are enumerated from 0, so. 參考了 http://albert-oma. I’ve done some significant experimentation with different options for encoding MPEG-2 video from a live video source with ffmpeg. I'm trying to use ffmpeg to record my screen and sound from Pulseaudio. blob: 8fa85661414a7463c4395f74cde2497718674a08 [] [] []. mp4 -filter:v "setpts=0. 663 なので無効なタイムスタンプである、 というエラー出力。. Libswresample (lswr) is a library that handles audio resampling, sample format conversion and mixing. , in the most generic terms. GitHub Gist: instantly share code, notes, and snippets. ffmpeg mosaic from wowza streams. mp4 -vn -ar 44100 -ac 2 -ab 320 -f mp3 output. int64_t swr_next_pts (struct SwrContext *s, int64_t pts) Convert the next timestamp from input to output timestamps are in 1/(in_sample_rate * out_sample_rate) units. Creating a mosaic/tile of screenshots from a movie Seeking and cutting sections of a video. mp4 -vf “setpts=(1/X )*PTS” output. 0 aq= 314KB vq= 8552KB sq= 0B f=0/0 /0. So, ffmpeg -y -i left. To double the speed of the video, you can use: ffmpeg -i input. For example, if there are two succesive frames shown at timestamps 1 and 2, and you want to speed up the video, those timestamps need to become 0. Audio! Lightworks works best with PCM audio. Select pixel format to be used by DirectShow. wav -codec:a libfdk_aac -vbr 3 output. The FFmpeg resampler provides a high-level interface to the libswresample library audio resampling utilities. FFMpeg – Transcode, copy flv to mp4 and more by RobinJack0r · Published May 23, 2014 · Updated April 13, 2019 (ffmpeg, ffplay and ffprobe) FFMpeg allows you to convert Video and Audio files to several different formats and codecs, as well as cutting, resizing and other functions. It also includes libavformat, an audio/video container mux and demux library. All of this is then encoded and merged into an MKV container. audio=(a0) AudioDubEx?(video,audio) From the ffplay console log. Generated on Fri Oct 26 02:39:50 2012 for FFmpeg by 1. 5*PTS" output. Hi, I've spent all day looking for a solution to this but to no avail. mp4, since it has the greatest number of channels. flac -i sidechain. Video may have delayed frames, which means the input frame and output frame may refer to differently ordered units. Maybe this has previously been explained in some other threads but I wonder what the exact convention should be if we have to pass a PTS value to a codec and have to capture a PTS value from the codec. Visit Stack Exchange. Hole stream duration is ~5s, but audio PTS goes to ~334s. The output is (almost) empty. Filippo Valsorda, 23 Mar 2016 on Technical notes Technical notes: mixing speaker and slides recording with FFmpeg. I will use this to capture the desktop with x11grab, audio from pulse and webcam from video4linux2. 0" -vn output. Encoders are allowed to output empty packets, with no compressed data, containing only side data (e. The new name better expresses what the variable is. Then you don't have to worry about including and installing all the right dependencies and codecs you will be using. mp4 Slower Video Speed ffmpeg -i input. In addition, most audio can have more than one channel for stereo or surround, so for example, if the sample is in stereo, the samples will come 2 at a time. - Update ffmpeg test profile against upstream FFmpeg 1. 000, but I want 48. 1: Audio: libmp3lame, 48000 Hz, stereo, 192 kb/s Stream mapping: Stream #0:0 -> #0:0 (copy) Stream #1:0 -> #0:1 (copy) Press ctrl-c to stop encoding frame= 144 fps= 0 q=-1. The PTS is given in units related to a program's overall clock reference, either Program Clock Reference (PCR) or System Clock. , 51 Franklin Street, Fifth Floor, Boston, MA 02110-1301 USA 20 */. The FFmpeg libav provides these info through its API. It also includes libavformat, an audio/video container mux and demux library. FFmpeg is a complete, cross-platform solution to record, convert and stream audio and video. r/ffmpeg: FFmpeg is the leading multimedia framework, able to decode, encode, transcode, mux, demux, stream, filter and play pretty much anything … Press J to jump to the feed. October 5th, 2019, Bright Lights. 할당 된 AVFrame 포인터를 디코딩 된 샘플 및 채널, 샘플 형식, 버퍼 크기의 다른 매개 변수 번호가 들어있는 버퍼와 함께 전달합니다. 6 Changing options at runtime with a command. Container: MP4 oder MKV bzw. I was able to extract all stream so for, except this one. In our testbed, FFmpeg works as an encoding and decoding front-end,. https://motiondesigntechnology. Tried $ ffmpeg -i EE. For example, if there are two succesive frames shown at timestamps 1 and 2, and you want to speed up the video, those timestamps need to become 0. It can be used to do an unbelievable range of things and it's being utilized by virtually anyone who's doing any form of video processing. To my knowledge ffmpeg is the only tool that could possibly do this. Introduction In this post, we will see how you can use FFmpeg libraries in your application and decode movie files. The ffmpeg program has numerous "switches" that help to adjust and convert audio and video files. Creating a mosaic/tile of screenshots from a movie Seeking and cutting sections of a video. avi but i get this error:. Thanks, for going over the frame reordering. 4) obs builds, and the frame pts/dts are being set properly. The above output, however, does not have any audio attached to the output. ffmpeg存在多个时间基准(time_base),对应不同的阶段(结构体),每个time_base具体的值不一样,ffmpeg提供函数在各个time_base中进行切换。 搞清楚各个time_base的来源,对于阅读ffmpeg的代码很重要。. int64_t swr_next_pts (struct SwrContext *s, int64_t pts) Convert the next timestamp from input to output timestamps are in 1/(in_sample_rate * out_sample_rate) units. -af "aresample=async=1:min_hard_comp=0. Filippo Valsorda, 23 Mar 2016 on Technical notes Technical notes: mixing speaker and slides recording with FFmpeg. You can change the speed of your video using the setpts (set presentation time stamp) filter of FFmpeg. After the semicolon (:) may be the stream specifier - supposing that you have only one video and one audio streams in your input files, you may simply use v for the video stream, and a for the. 25,atempo=1/1. FFmpeg, Timelapse and Fulldome Video Production, Color Grading, Streaming, Audio Processing, Canon 5D-MK4, Panasonic LUMIX GH5S, Kodak PIXPRO SP360 4K Image Processing and Astronomy Software by Michael Koch, [email protected] If you want a battle-tested and more sophisticated version, check out my module MoviePy. Adjust video and audio. audio learning tutorial compression h264 video ffmpeg hls guide handson dash codec video-codec h265 adaptive-streaming arithmetic-coding vp9. com by David Winterbottom #:2# # commandlinefu. That should output an image once per second (though note that's per second of processed audio; ffmpeg will as typical run as fast as the CPU allows, at least if the output will accept data that fast. avi Input files are introduced with -i options, and are enumerated from 0, so. The parameter for atempo must be between 0. 74 seconds Second Video 6. avi has the number 1. Now we're going to do the same sort of thing with the video display. This fixes the first issue I raised. To double the speed of audio:. It includes libavcodec, the leading audio/video codec library used by several other projects. The FFmpeg website has links to downloads for multiple operating systems or you could even. FFmpeg is a robust open-source framework designed for command-line-based processing of video and audio files, and widely used for format transcoding, basic editing (trimming and concatenation), video scaling, video post-production effects, and standards compliance. – Ability to view all audio tracks with ability to re-sort them in any order how the user would like them to be. The objective was to create video that was approximately 3 Mbps at a “decent” resolution; this video would be manually edited and then converted to Web quality. For a custom IO-Context this is necessary! FFmpeg will otherwise read about 5Mb data from the stream by default to determine the input format. - Update ffmpeg test profile against upstream FFmpeg 1. [input-file] is the video file or the stream URL. * * FFmpeg is distributed in the hope that it will be useful,. This will be used next time for synchronizing the audio with the video. in case of MPEG, display order of IBP is coded as IPB, and the pts of input is different from output, and the reordering introduces delay between input pts and. mp4 -filter:v "setpts=0. I have used working 1997 2000 Toyota Camry audio cassette. both pts starts from 0 with sync. I was able to extract all stream so for, except this one. Mysteriously the input. Instead, the following FFmpeg commands create separate audio and video renditions of the file in. User can manipulate audio, video and subtitle through this class. Extract Audio from Video. pts with ffmpeg::av_rescale_q() but this is only called after you have encoded the frame ! When used with the MP4V codec the avcodec_encode_video() sets the pts value correctly itself. 880 STAT: VOBU 8816 at 1358MB, 1 PGCs INFO: Video pts = 0. mkv ffmpeg -i input. 1 of the License, or (at your option) any later version. FFmpeg is a free and open-source project consisting of a vast software suite of libraries and programs for handling video, audio, and other multimedia files and streams. mp4 -filter:v "setpts=0. work flow process Input Video DataFile Demuxer stream Decoder Audio Data Subtitle Data. * ffmpeg-mpegts-vbr: Changes to support VBR Transport Streams * 2 graphs showing the timing in the first 1000 TS-packets of my test- stream, illustrating the effect of the changes Both patches are against svn19750. Each stream file can be thought of as a separate incoming live feed that contains one video track and one audio track. It makes sense to somewhat enhance the speech clarity, reduce background static and environmental noise, etc. Now with the pts_time we can find a way to render this synched with audio pts_time or with a system clock. I noticed that audio pts was very large than video pts. Tutorial 04: Spawning Threads Code: tutorial04. data alignment indicator -- if set to 1 indicates that the PES packet header is immediately followed by the video start code or audio syncword. FFmpeg There are a lot of questions and articles how to concatenate multiple videos into one with FFmpeg. com/ffmpeg. Note that this filter is not FDA approved, nor are we medical. Mix Video and Audio. 0 Lsize= 1684kB. I will try to explain how to use a couple of these…. Plays segment to check settings by right clicking image. ffmpeg seems to drop frames. Here is what ffprobe says about the clip: ffprobe version. Lmk asap! Aloha! do NOT contact me with unsolicited services or offers. 185760 pts_time=0. ffmpeg+audiounit. Now with the pts_time we can find a way to render this synched with audio pts_time or with a system clock. original or copy -- 1 = original, 0 = copy. It seems we should remove following code from avisynth_read_packet function. This will be useful in the following commit, after which the muxer timebase is not always available when encoding. Also, you can use various audio transcoding options to the output file as shown below. 139320 pts_time=0. - warns user if a frame seek mismatch occurs. It will become the default at the next libavformat major bump. If you leave out the -c copy option, ffmpeg will automatically re-encode the output video and audio according to the format you chose. FFmpeg offers few ways of concatenation: Concat demuxer; Concat protocol; Concat filters; Due to limits of each concatenation method we implemented it by “filter”. The detailed explanation: ffmpeg -i v1. avi Input files are introduced with -i options, and are enumerated from 0, so. It can convert to and from any supported video/audio codec, as well as stream from live feeds, which is what our example is going to be in this presentation-f :this option is typically not needed for file conversion. ffmpeg tutorial 05 with SDL2 and audio resampling fix - ffmpeg_tutorial05. ffmpeg [input-options] -i [input-file] [output-options] [output-stream-URI]Where: [input-options] apply to the input, or source, file. We're going to use a movie clip (The Good, the Bad and the Ugly) as a sample. 6 Changing options at runtime with a command. cropdetec can auto-detect crop size. Mix a video and audio together. mkv To slow down your video, you have to use a multiplier greater than 1: ffmpeg -i input. Encoders are allowed to output empty packets, with no compressed data, containing only side data (e. 5 would be half. By “decent”, I mean a high enough resolution so … Continue reading Real-time MPEG-2 encoding. The elementary stream is packetized by encapsulating sequential data bytes from the elementary stream inside PES. I am trying to understand the pts value in an audio encoded packet in ffmpeg. For example: To extract sound from a video and save it as MP3, you can use command line: $ ffmpeg -i video1. FFmpeg is developed. My code is: ffmpeg -y -f x11grab -f alsa -i hw:0. 5*PTS" output. https://motiondesigntechnology. For assistance with this, please contact PTS, +4686785500. A complete, cross-platform solution to record, convert and stream audio and video. Joining videos in Xabe. The above output, however, does not have any audio attached to the output. ffprobe Running ffprobe:. What do I mean by this? Well, you can easily convert from one format to another, extract audio from a video, compress a video and even extract pictures from a video. Ffprobe Timeout Ffprobe Timeout. If the output file is smaller you know that the video is written. This wikiHow teaches you how to install FFmpeg onto your Windows 10 computer. Check below link for more details.